  0
SECTION
  2
HEADER
  9
$ACADVER
  1
AC1014
  9
$ACADMAINTVER
 70
     9
  9
$DWGCODEPAGE
  3
ANSI_1252
  9
$INSBASE
 10
0.0
 20
0.0
 30
0.0
  9
$EXTMIN
 10
3.864889499233311
 20
4.500956950655616
 30
0.0
  9
$EXTMAX
 10
8.175012351683317
 20
8.349257146284166
 30
0.0
  9
$LIMMIN
 10
0.0
 20
0.0
  9
$LIMMAX
 10
12.0
 20
9.0
  9
$ORTHOMODE
 70
     0
  9
$REGENMODE
 70
     1
  9
$FILLMODE
 70
     1
  9
$QTEXTMODE
 70
     0
  9
$MIRRTEXT
 70
     1
  9
$DRAGMODE
 70
     2
  9
$LTSCALE
 40
1.0
  9
$OSMODE
 70
     0
  9
$ATTMODE
 70
     1
  9
$TEXTSIZE
 40
0.2
  9
$TRACEWID
 40
0.05
  9
$TEXTSTYLE
  7
STANDARD
  9
$CLAYER
  8
0
  9
$CELTYPE
  6
BYLAYER
  9
$CECOLOR
 62
   256
  9
$CELTSCALE
 40
1.0
  9
$DELOBJ
 70
     1
  9
$DISPSILH
 70
     0
  9
$DIMSCALE
 40
1.0
  9
$DIMASZ
 40
0.18
  9
$DIMEXO
 40
0.0625
  9
$DIMDLI
 40
0.38
  9
$DIMRND
 40
0.0
  9
$DIMDLE
 40
0.0
  9
$DIMEXE
 40
0.18
  9
$DIMTP
 40
0.0
  9
$DIMTM
 40
0.0
  9
$DIMTXT
 40
0.18
  9
$DIMCEN
 40
0.09
  9
$DIMTSZ
 40
0.0
  9
$DIMTOL
 70
     0
  9
$DIMLIM
 70
     0
  9
$DIMTIH
 70
     1
  9
$DIMTOH
 70
     1
  9
$DIMSE1
 70
     0
  9
$DIMSE2
 70
     0
  9
$DIMTAD
 70
     0
  9
$DIMZIN
 70
     0
  9
$DIMBLK
  1

  9
$DIMASO
 70
     1
  9
$DIMSHO
 70
     1
  9
$DIMPOST
  1

  9
$DIMAPOST
  1

  9
$DIMALT
 70
     0
  9
$DIMALTD
 70
     2
  9
$DIMALTF
 40
25.4
  9
$DIMLFAC
 40
1.0
  9
$DIMTOFL
 70
     0
  9
$DIMTVP
 40
0.0
  9
$DIMTIX
 70
     0
  9
$DIMSOXD
 70
     0
  9
$DIMSAH
 70
     0
  9
$DIMBLK1
  1

  9
$DIMBLK2
  1

  9
$DIMSTYLE
  2
STANDARD
  9
$DIMCLRD
 70
     0
  9
$DIMCLRE
 70
     0
  9
$DIMCLRT
 70
     0
  9
$DIMTFAC
 40
1.0
  9
$DIMGAP
 40
0.09
  9
$DIMJUST
 70
     0
  9
$DIMSD1
 70
     0
  9
$DIMSD2
 70
     0
  9
$DIMTOLJ
 70
     1
  9
$DIMTZIN
 70
     0
  9
$DIMALTZ
 70
     0
  9
$DIMALTTZ
 70
     0
  9
$DIMFIT
 70
     3
  9
$DIMUPT
 70
     0
  9
$DIMUNIT
 70
     2
  9
$DIMDEC
 70
     2
  9
$DIMTDEC
 70
     2
  9
$DIMALTU
 70
     2
  9
$DIMALTTD
 70
     2
  9
$DIMTXSTY
  7
STANDARD
  9
$DIMAUNIT
 70
     0
  9
$LUNITS
 70
     2
  9
$LUPREC
 70
     4
  9
$SKETCHINC
 40
0.1
  9
$FILLETRAD
 40
0.5
  9
$AUNITS
 70
     0
  9
$AUPREC
 70
     0
  9
$MENU
  1
.
  9
$ELEVATION
 40
0.0
  9
$PELEVATION
 40
0.0
  9
$THICKNESS
 40
0.0
  9
$LIMCHECK
 70
     0
  9
$BLIPMODE
 70
     0
  9
$CHAMFERA
 40
0.5
  9
$CHAMFERB
 40
0.5
  9
$CHAMFERC
 40
1.0
  9
$CHAMFERD
 40
0.0
  9
$SKPOLY
 70
     0
  9
$TDCREATE
 40
2452181.648852894
  9
$TDUPDATE
 40
2452643.328740509
  9
$TDINDWG
 40
0.0013325231
  9
$TDUSRTIMER
 40
0.0013318287
  9
$USRTIMER
 70
     1
  9
$ANGBASE
 50
0.0
  9
$ANGDIR
 70
     0
  9
$PDMODE
 70
     0
  9
$PDSIZE
 40
0.0
  9
$PLINEWID
 40
0.0
  9
$COORDS
 70
     1
  9
$SPLFRAME
 70
     0
  9
$SPLINETYPE
 70
     6
  9
$SPLINESEGS
 70
     8
  9
$ATTDIA
 70
     1
  9
$ATTREQ
 70
     1
  9
$HANDLING
 70
-16383
  9
$HANDSEED
  5
241
  9
$SURFTAB1
 70
     6
  9
$SURFTAB2
 70
     6
  9
$SURFTYPE
 70
     6
  9
$SURFU
 70
     6
  9
$SURFV
 70
     6
  9
$UCSNAME
  2

  9
$UCSORG
 10
0.0
 20
0.0
 30
0.0
  9
$UCSXDIR
 10
1.0
 20
0.0
 30
0.0
  9
$UCSYDIR
 10
0.0
 20
1.0
 30
0.0
  9
$PUCSNAME
  2

  9
$PUCSORG
 10
0.0
 20
0.0
 30
0.0
  9
$PUCSXDIR
 10
1.0
 20
0.0
 30
0.0
  9
$PUCSYDIR
 10
0.0
 20
1.0
 30
0.0
  9
$USERI1
 70
     0
  9
$USERI2
 70
     0
  9
$USERI3
 70
     0
  9
$USERI4
 70
     0
  9
$USERI5
 70
     0
  9
$USERR1
 40
0.0
  9
$USERR2
 40
0.0
  9
$USERR3
 40
0.0
  9
$USERR4
 40
0.0
  9
$USERR5
 40
0.0
  9
$WORLDVIEW
 70
     1
  9
$SHADEDGE
 70
     3
  9
$SHADEDIF
 70
    70
  9
$TILEMODE
 70
     1
  9
$MAXACTVP
 70
    64
  9
$PINSBASE
 10
0.0
 20
0.0
 30
0.0
  9
$PLIMCHECK
 70
     0
  9
$PEXTMIN
 10
1.000000000000000E+20
 20
1.000000000000000E+20
 30
1.000000000000000E+20
  9
$PEXTMAX
 10
-1.000000000000000E+20
 20
-1.000000000000000E+20
 30
-1.000000000000000E+20
  9
$PLIMMIN
 10
0.0
 20
0.0
  9
$PLIMMAX
 10
12.0
 20
9.0
  9
$UNITMODE
 70
     0
  9
$VISRETAIN
 70
     1
  9
$PLINEGEN
 70
     0
  9
$PSLTSCALE
 70
     1
  9
$TREEDEPTH
 70
  3020
  9
$PICKSTYLE
 70
     1
  9
$CMLSTYLE
  2
STANDARD
  9
$CMLJUST
 70
     0
  9
$CMLSCALE
 40
1.0
  9
$PROXYGRAPHICS
 70
     1
  9
$MEASUREMENT
 70
     0
  0
ENDSEC
  0
SECTION
  2
CLASSES
  0
CLASS
  1
ACDBDICTIONARYWDFLT
  2
AcDbDictionaryWithDefault
  3
AutoCAD 2000
 90
        0
280
     0
281
     0
  0
CLASS
  1
ACDBPLACEHOLDER
  2
AcDbPlaceHolder
  3
AutoCAD 2000
 90
        0
280
     0
281
     0
  0
CLASS
  1
LAYOUT
  2
AcDbLayout
  3
AutoCAD 2000
 90
        0
280
     0
281
     0
  0
CLASS
  1
LONG_TRANSACTION
  2
AcDbLongTransaction
  3
AutoCAD 2000
 90
        0
280
     0
281
     0
  0
CLASS
  1
LWPOLYLINE
  2
AcDbPolyline
  3
AutoCAD 2000
 90
        0
280
     0
281
     1
  0
CLASS
  1
HATCH
  2
AcDbHatch
  3
AutoCAD 2000
 90
        0
280
     0
281
     1
  0
CLASS
  1
XRECORD
  2
AcDbXrecord
  3
AutoCAD 2000
 90
        0
280
     0
281
     0
  0
ENDSEC
  0
SECTION
  2
TABLES
  0
TABLE
  2
VPORT
  5
8
330
0
100
AcDbSymbolTable
 70
     3
  0
VPORT
  5
21A
330
8
100
AcDbSymbolTableRecord
100
AcDbViewportTableRecord
  2
*ACTIVE
 70
     0
 10
0.0
 20
0.0
 11
1.0
 21
1.0
 12
6.581321473842802
 22
5.283088231257247
 13
0.0
 23
0.0
 14
0.5
 24
0.5
 15
0.5
 25
0.5
 16
0.0
 26
0.0
 36
1.0
 17
0.0
 27
0.0
 37
0.0
 40
8.99999999580908
 41
1.462515883100381
 42
50.0
 43
0.0
 44
0.0
 50
0.0
 51
0.0
 71
     0
 72
   100
 73
     1
 74
     3
 75
     0
 76
     0
 77
     0
 78
     0
  0
ENDTAB
  0
TABLE
  2
LTYPE
  5
5
330
0
100
AcDbSymbolTable
 70
     1
  0
LTYPE
  5
14
330
5
100
AcDbSymbolTableRecord
100
AcDbLinetypeTableRecord
  2
BYBLOCK
 70
     0
  3

 72
    65
 73
     0
 40
0.0
  0
LTYPE
  5
15
330
5
100
AcDbSymbolTableRecord
100
AcDbLinetypeTableRecord
  2
BYLAYER
 70
     0
  3

 72
    65
 73
     0
 40
0.0
  0
LTYPE
  5
16
330
5
100
AcDbSymbolTableRecord
100
AcDbLinetypeTableRecord
  2
CONTINUOUS
 70
     0
  3
Solid line
 72
    65
 73
     0
 40
0.0
  0
ENDTAB
  0
TABLE
  2
LAYER
  5
2
330
0
100
AcDbSymbolTable
 70
     4
  0
LAYER
  5
10
330
2
100
AcDbSymbolTableRecord
100
AcDbLayerTableRecord
  2
0
 70
     0
 62
     7
  6
CONTINUOUS
  0
LAYER
  5
34
330
2
100
AcDbSymbolTableRecord
100
AcDbLayerTableRecord
  2
L
 70
     0
 62
     7
  6
CONTINUOUS
  0
LAYER
  5
45
330
2
100
AcDbSymbolTableRecord
100
AcDbLayerTableRecord
  2
DEFPOINTS
 70
     0
 62
     7
  6
CONTINUOUS
  0
LAYER
  5
88
330
2
100
AcDbSymbolTableRecord
100
AcDbLayerTableRecord
  2
TX
 70
     0
 62
   150
  6
CONTINUOUS
  0
ENDTAB
  0
TABLE
  2
STYLE
  5
3
330
0
100
AcDbSymbolTable
 70
     3
  0
STYLE
  5
11
330
3
100
AcDbSymbolTableRecord
100
AcDbTextStyleTableRecord
  2
STANDARD
 70
     0
 40
0.0
 41
1.0
 50
0.0
 71
     0
 42
0.2
  3
txt
  4

  0
STYLE
  5
35
330
3
100
AcDbSymbolTableRecord
100
AcDbTextStyleTableRecord
  2
REG
 70
     0
 40
0.0
 41
1.0
 50
0.0
 71
     0
 42
0.09375
  3
E:\R13\com\fonts\ARCHITXT.SHX
  4

  0
STYLE
  5
36
330
3
100
AcDbSymbolTableRecord
100
AcDbTextStyleTableRecord
  2
DIMTXT
 70
     0
 40
0.0
 41
1.0
 50
0.0
 71
     0
 42
1.125
  3
archt.shx
  4

  0
ENDTAB
  0
TABLE
  2
VIEW
  5
6
330
0
100
AcDbSymbolTable
 70
     0
  0
ENDTAB
  0
TABLE
  2
UCS
  5
7
330
0
100
AcDbSymbolTable
 70
     0
  0
ENDTAB
  0
TABLE
  2
APPID
  5
9
330
0
100
AcDbSymbolTable
 70
     1
  0
APPID
  5
12
330
9
100
AcDbSymbolTableRecord
100
AcDbRegAppTableRecord
  2
ACAD
 70
     0
  0
ENDTAB
  0
TABLE
  2
DIMSTYLE
  5
A
330
0
100
AcDbSymbolTable
 70
     6
  0
DIMSTYLE
105
27
102
{ACAD_REACTORS
330
C1
330
CF
102
}
330
A
100
AcDbSymbolTableRecord
100
AcDbDimStyleTableRecord
  2
STANDARD
 70
     0
  3

  4

  5

  6

  7

 40
1.0
 41
0.18
 42
0.0625
 43
0.38
 44
0.18
 45
0.0
 46
0.0
 47
0.0
 48
0.0
140
0.18
141
0.09
142
0.0
143
25.4
144
1.0
145
0.0
146
1.0
147
0.09
 71
     0
 72
     0
 73
     1
 74
     1
 75
     0
 76
     0
 77
     0
 78
     0
170
     0
171
     2
172
     0
173
     0
174
     0
175
     0
176
     0
177
     0
178
     0
270
     2
271
     2
272
     2
273
     2
274
     2
340
11
275
     0
280
     0
281
     0
282
     0
283
     1
284
     0
285
     0
286
     0
287
     3
288
     0
  0
DIMSTYLE
105
37
330
A
100
AcDbSymbolTableRecord
100
AcDbDimStyleTableRecord
  2
1
 70
     0
  3

  4

  5

  6

  7

 40
1.0
 41
1.125
 42
0.5
 43
0.375
 44
1.19921875
 45
0.0
 46
0.5
 47
0.0
 48
0.0
140
1.125
141
0.125
142
0.0
143
25.4
144
1.0
145
0.0
146
0.8
147
0.5625
 71
     0
 72
     0
 73
     0
 74
     0
 75
     0
 76
     0
 77
     1
 78
     3
170
     0
171
     2
172
     1
173
     0
174
     1
175
     0
176
   133
177
   133
178
   150
270
     2
271
     3
272
     3
273
     2
274
     2
340
36
275
     0
280
     0
281
     0
282
     0
283
     1
284
     0
285
     0
286
     0
287
     4
288
     0
  0
DIMSTYLE
105
38
330
A
100
AcDbSymbolTableRecord
100
AcDbDimStyleTableRecord
  2
1$2
 70
     0
  3

  4

  5
DOTSMALL
  6

  7

 40
1.0
 41
1.5
 42
0.5
 43
0.375
 44
1.19921875
 45
0.0
 46
0.5
 47
0.0
 48
0.0
140
0.75
141
0.125
142
0.0
143
25.4
144
1.0
145
0.0
146
0.8
147
0.5625
 71
     0
 72
     0
 73
     0
 74
     0
 75
     0
 76
     0
 77
     1
 78
     3
170
     0
171
     2
172
     1
173
     0
174
     1
175
     0
176
   133
177
   133
178
   150
270
     2
271
     3
272
     3
273
     2
274
     2
340
36
275
     0
280
     0
281
     0
282
     0
283
     1
284
     0
285
     0
286
     0
287
     4
288
     0
  0
DIMSTYLE
105
39
330
A
100
AcDbSymbolTableRecord
100
AcDbDimStyleTableRecord
  2
1$4
 70
     0
  3

  4

  5

  6

  7
DOTSMALL
 40
1.0
 41
1.5
 42
0.5
 43
0.375
 44
1.19921875
 45
0.0
 46
0.5
 47
0.0
 48
0.0
140
0.75
141
0.125
142
0.0
143
25.4
144
1.0
145
0.0
146
0.8
147
0.5625
 71
     0
 72
     0
 73
     0
 74
     0
 75
     0
 76
     0
 77
     1
 78
     3
170
     0
171
     2
172
     1
173
     1
174
     1
175
     0
176
   133
177
   133
178
   150
270
     2
271
     3
272
     3
273
     2
274
     2
340
36
275
     0
280
     0
281
     0
282
     0
283
     1
284
     0
285
     0
286
     0
287
     4
288
     0
  0
DIMSTYLE
105
3A
330
A
100
AcDbSymbolTableRecord
100
AcDbDimStyleTableRecord
  2
1$3
 70
     0
  3

  4

  5
DOTSMALL
  6

  7

 40
1.0
 41
1.5
 42
0.5
 43
0.375
 44
1.19921875
 45
0.0
 46
0.5
 47
0.0
 48
0.0
140
0.75
141
0.125
142
0.0
143
25.4
144
1.0
145
0.0
146
0.8
147
0.5625
 71
     0
 72
     0
 73
     0
 74
     0
 75
     0
 76
     0
 77
     1
 78
     3
170
     0
171
     2
172
     1
173
     0
174
     1
175
     0
176
   133
177
   133
178
   150
270
     2
271
     3
272
     3
273
     2
274
     2
340
36
275
     0
280
     0
281
     0
282
     0
283
     1
284
     0
285
     0
286
     0
287
     4
288
     0
  0
DIMSTYLE
105
3B
330
A
100
AcDbSymbolTableRecord
100
AcDbDimStyleTableRecord
  2
1$7
 70
     0
  3

  4

  5

  6

  7

 40
1.0
 41
1.0
 42
0.5
 43
0.375
 44
1.19921875
 45
0.0
 46
0.5
 47
0.0
 48
0.0
140
0.75
141
0.125
142
0.0
143
25.4
144
1.0
145
0.0
146
0.8
147
0.5625
 71
     0
 72
     0
 73
     0
 74
     0
 75
     0
 76
     0
 77
     1
 78
     3
170
     0
171
     2
172
     1
173
     0
174
     1
175
     0
176
   133
177
   133
178
   150
270
     2
271
     3
272
     3
273
     2
274
     2
340
36
275
     0
280
     0
281
     0
282
     0
283
     1
284
     0
285
     0
286
     0
287
     4
288
     0
  0
ENDTAB
  0
TABLE
  2
BLOCK_RECORD
  5
1
330
0
100
AcDbSymbolTable
 70
     5
  0
BLOCK_RECORD
  5
1F
102
{ACAD_XDICTIONARY
360
23D
102
}
330
1
100
AcDbSymbolTableRecord
100
AcDbBlockTableRecord
  2
*MODEL_SPACE
  0
BLOCK_RECORD
  5
1B
102
{ACAD_XDICTIONARY
360
23B
102
}
330
1
100
AcDbSymbolTableRecord
100
AcDbBlockTableRecord
  2
*PAPER_SPACE
  0
BLOCK_RECORD
  5
2B
330
1
100
AcDbSymbolTableRecord
100
AcDbBlockTableRecord
  2
_DOT
  0
BLOCK_RECORD
  5
30
330
1
100
AcDbSymbolTableRecord
100
AcDbBlockTableRecord
  2
_DOTSMALL
  0
BLOCK_RECORD
  5
C2
330
1
100
AcDbSymbolTableRecord
100
AcDbBlockTableRecord
  2
*D3
  0
BLOCK_RECORD
  5
D0
330
1
100
AcDbSymbolTableRecord
100
AcDbBlockTableRecord
  2
*D4
  0
ENDTAB
  0
ENDSEC
  0
SECTION
  2
BLOCKS
  0
BLOCK
  5
20
330
1F
100
AcDbEntity
  8
0
100
AcDbBlockBegin
  2
*MODEL_SPACE
 70
     0
 10
0.0
 20
0.0
 30
0.0
  3
*MODEL_SPACE
  1

  0
ENDBLK
  5
21
330
1F
100
AcDbEntity
  8
0
100
AcDbBlockEnd
  0
BLOCK
  5
1C
330
1B
100
AcDbEntity
 67
     1
  8
0
100
AcDbBlockBegin
  2
*PAPER_SPACE
 70
     0
 10
0.0
 20
0.0
 30
0.0
  3
*PAPER_SPACE
  1

  0
ENDBLK
  5
1D
330
1B
100
AcDbEntity
 67
     1
  8
0
100
AcDbBlockEnd
  0
BLOCK
  5
2E
330
2B
100
AcDbEntity
  8
0
100
AcDbBlockBegin
  2
_DOT
 70
     0
 10
0.0
 20
0.0
 30
0.0
  3
_DOT
  1

  0
LWPOLYLINE
  5
2C
330
2B
100
AcDbEntity
  8
L
 62
     0
100
AcDbPolyline
 90
        2
 70
     1
 43
0.5
 10
-0.25
 20
0.0
 42
1.0
 10
0.25
 20
0.0
 42
1.0
  0
LINE
  5
2D
330
2B
100
AcDbEntity
  8
L
 62
     0
100
AcDbLine
 10
-0.5
 20
0.0
 30
0.0
 11
-1.0
 21
0.0
 31
0.0
  0
ENDBLK
  5
2F
330
2B
100
AcDbEntity
  8
0
100
AcDbBlockEnd
  0
BLOCK
  5
32
330
30
100
AcDbEntity
  8
0
 48
0.116666
100
AcDbBlockBegin
  2
_DOTSMALL
 70
     0
 10
0.0
 20
0.0
 30
0.0
  3
_DOTSMALL
  1

  0
LWPOLYLINE
  5
31
330
30
100
AcDbEntity
  8
0
  6
BYBLOCK
 62
     0
100
AcDbPolyline
 90
        2
 70
     1
 43
0.5
 10
-0.0625
 20
0.0
 42
1.0
 10
0.0625
 20
0.0
 42
1.0
  0
ENDBLK
  5
33
330
30
100
AcDbEntity
  8
0
 48
0.116666
100
AcDbBlockEnd
  0
BLOCK
  5
CD
330
C2
100
AcDbEntity
  8
0
100
AcDbBlockBegin
  2
*D3
 70
     1
 10
0.0
 20
0.0
 30
0.0
  3
*D3
  1

  0
LINE
  5
C3
330
C2
100
AcDbEntity
  8
0
 62
     0
100
AcDbLine
 10
6.036191217169385
 20
7.431840503102961
 30
0.0
 11
3.924889499233313
 21
7.431840503102962
 31
0.0
  0
LINE
  5
C4
330
C2
100
AcDbEntity
  8
0
 62
     0
100
AcDbLine
 10
6.068303123328046
 20
5.296840503102949
 30
0.0
 11
3.924889499233312
 21
5.296840503102949
 31
0.0
  0
LINE
  5
C5
330
C2
100
AcDbEntity
  8
0
 62
     0
100
AcDbLine
 10
4.104889499233313
 20
7.251840503102962
 30
0.0
 11
4.104889499233313
 21
6.544340503102955
 31
0.0
  0
LINE
  5
C6
330
C2
100
AcDbEntity
  8
0
 62
     0
100
AcDbLine
 10
4.104889499233312
 20
5.476840503102949
 30
0.0
 11
4.104889499233313
 21
6.184340503102956
 31
0.0
  0
SOLID
  5
C7
330
C2
100
AcDbEntity
  8
0
 62
     0
100
AcDbTrace
 10
4.074889499233313
 20
7.251840503102962
 30
0.0
 11
4.134889499233313
 21
7.251840503102962
 31
0.0
 12
4.104889499233313
 22
7.431840503102962
 32
0.0
 13
4.104889499233313
 23
7.431840503102962
 33
0.0
  0
SOLID
  5
C8
330
C2
100
AcDbEntity
  8
0
 62
     0
100
AcDbTrace
 10
4.074889499233312
 20
5.476840503102949
 30
0.0
 11
4.134889499233312
 21
5.476840503102949
 31
0.0
 12
4.104889499233312
 22
5.296840503102949
 32
0.0
 13
4.104889499233312
 23
5.296840503102949
 33
0.0
  0
MTEXT
  5
C9
330
C2
100
AcDbEntity
  8
0
 62
     0
100
AcDbMText
 10
4.104889499233311
 20
6.364340503102956
 30
0.0
 40
0.18
 41
0.0
 71
     5
 72
     1
  1
\A1;2.14
1001
ACAD
1000
MTEXTBEGIN
1070
    73
1070
     1
1070
    44
1040
1.0
1070
    74
1070
     0
1000
MTEXTEND
  0
POINT
  5
CA
330
C2
100
AcDbEntity
  8
DEFPOINTS
 62
     0
100
AcDbPoint
 10
6.098691217169385
 20
7.431840503102961
 30
0.0
  0
POINT
  5
CB
330
C2
100
AcDbEntity
  8
DEFPOINTS
 62
     0
100
AcDbPoint
 10
6.130803123328046
 20
5.296840503102949
 30
0.0
  0
POINT
  5
CC
330
C2
100
AcDbEntity
  8
DEFPOINTS
 62
     0
100
AcDbPoint
 10
4.104889499233312
 20
5.296840503102949
 30
0.0
  0
ENDBLK
  5
CE
330
C2
100
AcDbEntity
  8
0
100
AcDbBlockEnd
  0
BLOCK
  5
DB
330
D0
100
AcDbEntity
  8
0
100
AcDbBlockBegin
  2
*D4
 70
     1
 10
0.0
 20
0.0
 30
0.0
  3
*D4
  1

  0
LINE
  5
D1
330
D0
100
AcDbEntity
  8
0
 62
     0
100
AcDbLine
 10
4.930052165600538
 20
7.233797111649288
 30
0.0
 11
4.930052165600538
 21
8.349257146284166
 31
0.0
  0
LINE
  5
D2
330
D0
100
AcDbEntity
  8
0
 62
     0
100
AcDbLine
 10
8.16204260003565
 20
6.909591143208685
 30
0.0
 11
8.16204260003565
 21
8.349257146284166
 31
0.0
  0
LINE
  5
D3
330
D0
100
AcDbEntity
  8
0
 62
     0
100
AcDbLine
 10
5.110052165600538
 20
8.169257146284166
 30
0.0
 11
6.186047382818094
 21
8.169257146284166
 31
0.0
  0
LINE
  5
D4
330
D0
100
AcDbEntity
  8
0
 62
     0
100
AcDbLine
 10
7.982042600035651
 20
8.169257146284166
 30
0.0
 11
6.906047382818095
 21
8.169257146284166
 31
0.0
  0
SOLID
  5
D5
330
D0
100
AcDbEntity
  8
0
 62
     0
100
AcDbTrace
 10
5.110052165600538
 20
8.199257146284166
 30
0.0
 11
5.110052165600538
 21
8.139257146284167
 31
0.0
 12
4.930052165600538
 22
8.169257146284166
 32
0.0
 13
4.930052165600538
 23
8.169257146284166
 33
0.0
  0
SOLID
  5
D6
330
D0
100
AcDbEntity
  8
0
 62
     0
100
AcDbTrace
 10
7.982042600035651
 20
8.199257146284166
 30
0.0
 11
7.982042600035651
 21
8.139257146284167
 31
0.0
 12
8.16204260003565
 22
8.169257146284166
 32
0.0
 13
8.16204260003565
 23
8.169257146284166
 33
0.0
  0
MTEXT
  5
D7
330
D0
100
AcDbEntity
  8
0
 62
     0
100
AcDbMText
 10
6.546047382818095
 20
8.169257146284166
 30
0.0
 40
0.18
 41
0.0
 71
     5
 72
     1
  1
\A1;3.23
1001
ACAD
1000
MTEXTBEGIN
1070
    73
1070
     1
1070
    44
1040
1.0
1070
    74
1070
     0
1000
MTEXTEND
  0
POINT
  5
D8
330
D0
100
AcDbEntity
  8
DEFPOINTS
 62
     0
100
AcDbPoint
 10
4.930052165600538
 20
7.171297111649288
 30
0.0
  0
POINT
  5
D9
330
D0
100
AcDbEntity
  8
DEFPOINTS
 62
     0
100
AcDbPoint
 10
8.16204260003565
 20
6.847091143208685
 30
0.0
  0
POINT
  5
DA
330
D0
100
AcDbEntity
  8
DEFPOINTS
 62
     0
100
AcDbPoint
 10
8.16204260003565
 20
8.169257146284166
 30
0.0
  0
ENDBLK
  5
DC
330
D0
100
AcDbEntity
  8
0
100
AcDbBlockEnd
  0
ENDSEC
  0
SECTION
  2
ENTITIES
  0
LWPOLYLINE
  5
BD
330
1F
100
AcDbEntity
  8
L
 62
     5
 48
0.116666
100
AcDbPolyline
 90
        2
 70
     0
 43
0.028125
 10
5.030553772897498
 20
4.691675551957292
 10
7.91256778151817
 20
4.691675551957292
  0
TEXT
  5
BE
330
1F
100
AcDbEntity
  8
L
 62
     3
 48
0.116666
100
AcDbText
 10
5.124289615578597
 20
4.785411394638277
 30
0.0
 40
0.140625
  1
TENSION FRAME #2085
  7
REG
100
AcDbText
  0
TEXT
  5
BF
330
1F
100
AcDbEntity
  8
TX
 48
0.116666
100
AcDbText
 10
5.124289615578597
 20
4.504189709276307
 30
0.0
 40
0.09375
  1
SCALE : FULL SIZE
  7
REG
 11
5.124289615578597
 21
4.597939709276307
 31
0.0
100
AcDbText
 73
     3
  0
DIMENSION
  5
C1
330
1F
100
AcDbEntity
  8
0
100
AcDbDimension
  2
*D3
 10
4.104889499233312
 20
5.296840503102949
 30
0.0
 11
4.104889499233311
 21
6.364340503102956
 31
0.0
 70
    32
  3
STANDARD
100
AcDbAlignedDimension
 13
6.098691217169385
 23
7.431840503102961
 33
0.0
 14
6.130803123328046
 24
5.296840503102949
 34
0.0
 50
90.0
100
AcDbRotatedDimension
  0
DIMENSION
  5
CF
330
1F
100
AcDbEntity
  8
0
100
AcDbDimension
  2
*D4
 10
8.16204260003565
 20
8.169257146284166
 30
0.0
 11
6.546047382818095
 21
8.169257146284166
 31
0.0
 70
    32
  3
STANDARD
100
AcDbAlignedDimension
 13
4.930052165600538
 23
7.171297111649288
 33
0.0
 14
8.16204260003565
 24
6.847091143208685
 34
0.0
100
AcDbRotatedDimension
  0
LWPOLYLINE
  5
170
330
1F
100
AcDbEntity
  8
L
 62
     5
100
AcDbPolyline
 90
      101
 70
     1
 43
0.0
 10
6.102226751075345
 20
7.349221708076306
 10
6.062345547247171
 20
7.309340504248305
 42
-0.6904392595158051
 10
6.047681359169796
 20
7.315944720425314
 10
6.052729276392124
 20
7.3987191827593
 10
6.076770906952486
 20
7.422760813319662
 42
-0.4142135623730951
 10
6.120611527386113
 20
7.422760813319719
 10
6.278296339543072
 20
7.265076001115127
 42
0.4142135623730951
 10
6.322136959976528
 20
7.265076001115126
 10
6.479821772228813
 20
7.422760813319662
 42
-0.4142135623730951
 10
6.523662392662441
 20
7.422760813319719
 10
6.613111400482477
 20
7.333311805499512
 42
-0.9999999999987631
 10
6.567149459705301
 20
7.28734986472245
 10
6.523662392947795
 20
7.330836931765425
 42
0.4142135623730951
 10
6.479821772514338
 20
7.330836931765425
 10
6.368098900864078
 20
7.219114060129919
 42
0.4142135626055102
 10
6.368098900855425
 20
7.175273439687607
 10
6.5437227770011
 20
7.013268537720098
 42
0.1884553804605863
 10
6.585760807059028
 20
6.99684050310288
 10
7.168803123328057
 20
6.996840503102824
 42
0.4142135623730951
 10
7.199803123328234
 20
7.027840503102943
 10
7.199803123328383
 20
7.406840625414993
 42
-0.9999975537623774
 10
7.249803123328188
 20
7.406840503102962
 10
7.249803123328178
 20
7.026668128406022
 42
0.3582490687437192
 10
7.274803123328053
 20
6.996254315754479
 42
-0.3582490687420506
 10
7.299803123328143
 20
6.965840503102931
 10
7.299803123328086
 20
6.849840503102946
 42
0.4142135623730951
 10
7.330803123328092
 20
6.818840503102883
 10
7.929803123328024
 20
6.818840503102883
 10
7.929803123328024
 20
6.912840503102934
 10
8.041803202834994
 20
6.912840503102889
 42
-0.2018205321601692
 10
8.153338567825741
 20
6.865908576436604
 42
-1.000000110144616
 10
8.109010373571534
 20
6.822561013712125
 42
0.269601929613362
 10
8.017930107455052
 20
6.847758483245073
 42
0.3408540656164281
 10
7.994803123328079
 20
6.817774894049257
 10
7.99480312332809
 20
6.787840503102934
 42
-0.3153057630681382
 10
7.974405008606349
 20
6.758709762835176
 42
0.4433576303932865
 10
7.957059542888676
 20
6.716164643256369
 42
0.520569191999987
 10
8.109010383120374
 20
6.691120002258579
 42
-0.9999998898605237
 10
8.153338567825615
 20
6.647772429769262
 42
-0.6133922709487234
 10
7.887961611976169
 20
6.730979540536143
 42
0.3662336278387496
 10
7.857390542412399
 20
6.756840503102871
 10
7.416803123328104
 20
6.756840503102928
 42
0.4142135623736321
 10
7.354803123328206
 20
6.694840503102859
 10
7.35480312332832
 20
5.327840503102898
 42
-0.4142135623741692
 10
7.32380312332803
 20
5.296840503102949
 10
7.166803123328104
 20
5.296840503103005
 42
-0.4142135623730951
 10
7.104803123328206
 20
5.35884050310296
 10
7.104803123328206
 20
5.361840503102889
 10
7.300303123328017
 20
5.361840503102889
 10
7.300303123328017
 20
5.626840503102876
 10
6.154303123328059
 20
5.626840503102876
 10
6.154303123328059
 20
5.361840503102889
 10
6.302803123328072
 20
5.361840503102946
 42
-0.4142135623730951
 10
6.364803123328197
 20
5.299840503102878
 10
6.364803123328197
 20
5.296840503102949
 10
6.304803123328024
 20
5.296840503102949
 10
6.294803123328033
 20
5.306840503102939
 10
6.284803123328043
 20
5.296840503102949
 10
6.130803123328046
 20
5.296840503102949
 42
-0.4142135623730951
 10
6.099803123328097
 20
5.327840503102898
 10
6.099803123328097
 20
6.276843028419825
 10
5.292462502894506
 20
7.133681123536414
 42
0.1989123673793211
 10
5.248621882460934
 20
7.151840503102853
 10
5.00688411576374
 20
7.151840503102823
 42
-1.880245944197072
 10
4.969803148144006
 20
7.206840503102917
 10
5.271403628391549
 20
7.206840503102891
 42
-0.198912367379658
 10
5.315244248825006
 20
7.188681123536476
 10
6.560431945284147
 20
5.943493427077335
 42
0.4142135623730951
 10
6.648113186151345
 20
5.943493427077392
 10
6.988231547901971
 20
6.283611788828245
 42
0.4142135623723357
 10
6.988231547902028
 20
6.37129302969533
 10
6.556562492573316
 20
6.802962085024041
 10
6.575988294470203
 20
6.875460164681335
 10
6.547704023222745
 20
6.903744435928793
 10
6.507333231318304
 20
6.863373644024163
 42
-0.7673269879735426
 10
6.494104431049304
 20
6.87101129542038
 10
6.512348684163367
 20
6.939099774988058
 10
6.484064412915909
 20
6.967384046235515
 10
6.443693621011359
 20
6.927013254330994
 42
-0.7673269879724609
 10
6.430464820742695
 20
6.934650905727217
 10
6.448709073856758
 20
7.002739385294894
 10
6.420424802609073
 20
7.031023656542352
 10
6.380054010704559
 20
6.990652864637794
 42
-0.7673269879764991
 10
6.366825210435859
 20
6.998290516033939
 10
6.385069463549921
 20
7.066378995601731
 10
6.356785192302464
 20
7.094663266849188
 10
6.316414400397722
 20
7.05429247494463
 42
-0.7673269879764991
 10
6.303185600129022
 20
7.061930126340776
 10
6.321429853243085
 20
7.130018605908453
 10
6.293145581995627
 20
7.158302877155911
 10
6.252774790090906
 20
7.117932085251332
 42
-0.7673269879820153
 10
6.239545989822186
 20
7.125569736647612
 10
6.257790242936248
 20
7.19365821621529
 10
6.229505971688791
 20
7.221942487462747
 10
6.189135179784277
 20
7.181571695558189
 42
-0.7673269879764991
 10
6.175906379515577
 20
7.189209346954335
 10
6.194150632629412
 20
7.257297826522012
 10
6.165866361381954
 20
7.28558209776947
 10
6.125495569477404
 20
7.245211305864948
 42
-0.7673269879724609
 10
6.112266769208741
 20
7.252848957261171
 10
6.130511022322803
 20
7.320937436828849
  0
LWPOLYLINE
  5
18C
330
1F
100
AcDbEntity
  8
L
 62
     5
100
AcDbPolyline
 90
       11
 70
     1
 43
0.0
 10
6.645320367270738
 20
5.69184050310284
 10
6.645320367270738
 20
5.69184050310293
 10
6.22680312332805
 20
5.691840503102987
 42
-0.4142135623730951
 10
6.164803123328095
 20
5.753840503102942
 10
6.164803123328152
 20
5.753840503102942
 10
6.164803123328152
 20
6.17235774704563
 10
6.164803123328165
 20
6.17235774704563
 42
-0.6681786379192989
 10
6.217723433544838
 20
6.194278057262367
 10
6.217723433544829
 20
6.194278057262359
 10
6.667240677487694
 20
5.744760813319722
 10
6.667240677487606
 20
5.744760813319634
 42
-0.6681786379183615
  0
LWPOLYLINE
  5
1D8
330
1F
100
AcDbEntity
  8
L
 62
     5
100
AcDbPolyline
 90
       55
 70
     1
 43
0.0
 10
7.214803192522236
 20
6.82184050310304
 10
7.234803123328088
 20
6.821840503102926
 10
7.234803123328088
 20
6.772840503102948
 10
7.234803123328171
 20
6.772840503102948
 42
0.3814494538752708
 10
7.262303123328241
 20
6.742038717440447
 10
7.262303123328236
 20
6.742038717440411
 42
-0.381449453875047
 10
7.289803123327954
 20
6.711236931777825
 10
7.289803123328152
 20
6.711236931777825
 10
7.289803123328152
 20
5.787444074427931
 10
7.28980312332812
 20
5.787444074427931
 42
-0.3814494538770157
 10
7.262303123328245
 20
5.756642288765383
 10
7.262303123328241
 20
5.756642288765424
 42
0.3814494538752708
 10
7.23480312332817
 20
5.725840503102922
 10
7.234803123328088
 20
5.725840503102922
 10
7.234803123328088
 20
5.69184050310293
 10
7.104803123328206
 20
5.69184050310293
 10
7.104803123328206
 20
5.756840503102871
 10
7.095803123328192
 20
5.756840503102871
 42
0.4142135623730951
 10
7.064803123328243
 20
5.725840503102922
 10
7.064803123328243
 20
5.722840503102879
 10
7.064803123328356
 20
5.722840503102879
 42
-0.4142135623741692
 10
7.033803123328066
 20
5.69184050310293
 10
6.837766110183206
 20
5.69184050310293
 10
6.837766110183206
 20
5.691840503102931
 42
-0.1989123677907077
 10
6.793925489680307
 20
5.709999882738514
 10
6.7939254896804
 20
5.709999882738607
 10
6.694075126928378
 20
5.809850245806224
 10
6.694075126928321
 20
5.809850245806167
 42
-0.4142135623738547
 10
6.694075126928321
 20
5.897531486673422
 10
6.694075126928378
 20
5.897531486673365
 10
7.080155429435858
 20
6.283611789577157
 10
7.080155429446524
 20
6.283611789587864
 42
0.4142135625151266
 10
7.080155429446524
 20
6.371293030476338
 10
7.080155429457231
 20
6.371293030465672
 10
6.666126985660053
 20
6.785321473491485
 10
6.66612698566007
 20
6.785321473491502
 42
-0.6681786379192989
 10
6.726817154870882
 20
6.931840503102963
 10
6.726817154870882
 20
6.931840503102939
 10
7.033803123328066
 20
6.931840503102939
 10
7.033803123328066
 20
6.931840503102883
 42
-0.4142135623741692
 10
7.064803123328413
 20
6.900840503102877
 10
7.064803123328243
 20
6.900840503102877
 10
7.064803123328243
 20
6.761840511938153
 42
1.000000441764411
 10
7.104803123328206
 20
6.761840511938153
 10
7.104803123328206
 20
6.900840503102877
 10
7.104803123328149
 20
6.900840503102877
 42
-0.4142135623730951
 10
7.135803123328155
 20
6.931840503102883
 10
7.135803123328155
 20
6.931840503102939
 10
7.17280312332819
 20
6.931840503102939
 10
7.17280312332819
 20
6.931840503102884
 42
-0.4142135623730951
 10
7.234803123328146
 20
6.869840503102928
 10
7.234803123328088
 20
6.869840503102928
 10
7.234803123328088
 20
6.861840503102889
 10
7.214803192522236
 20
6.861840503102889
 10
7.214803192522236
 20
6.861840503102833
 42
1.000003459712461
  0
ENDSEC
  0
SECTION
  2
OBJECTS
  0
DICTIONARY
  5
C
330
0
100
AcDbDictionary
  3
ACAD_GROUP
350
D
  3
ACAD_LAYOUT
350
1A
  3
ACAD_MLINESTYLE
350
17
  3
ACAD_PLOTSETTINGS
350
19
  3
ACAD_PLOTSTYLENAME
350
E
  3
ACDBHEADERROUNDTRIPXREC
350
21B
  0
DICTIONARY
  5
23D
330
1F
100
AcDbDictionary
280
     1
  3
ACAD_LAYOUTSELFREF
360
23E
  0
DICTIONARY
  5
23B
330
1B
100
AcDbDictionary
280
     1
  3
ACAD_LAYOUTSELFREF
360
23C
  0
DICTIONARY
  5
D
102
{ACAD_REACTORS
330
C
102
}
330
C
100
AcDbDictionary
  0
DICTIONARY
  5
1A
102
{ACAD_REACTORS
330
C
102
}
330
C
100
AcDbDictionary
  0
DICTIONARY
  5
17
102
{ACAD_REACTORS
330
C
102
}
330
C
100
AcDbDictionary
  3
STANDARD
350
18
  0
DICTIONARY
  5
19
102
{ACAD_REACTORS
330
C
102
}
330
C
100
AcDbDictionary
  0
ACDBDICTIONARYWDFLT
  5
E
102
{ACAD_REACTORS
330
C
102
}
330
C
100
AcDbDictionary
281
     1
  3
Normal
350
F
100
AcDbDictionaryWithDefault
340
F
  0
DICTIONARY
  5
21B
102
{ACAD_REACTORS
330
C
102
}
330
C
100
AcDbDictionary
  3
CEPSNTYPE
350
225
  3
FINGERPRINTGUID
350
226
  3
HYPERLINKBASE
350
21E
  3
INSUNITS
350
224
  3
LAYOUTDICT
350
220
  3
LWETCUNION
350
223
  3
PLOTSETDICT
350
221
  3
PLOTSTYLNAMDICT
350
222
  3
PSVPSCALE
350
228
  3
PUCSBASE
350
22B
  3
PUCSORGBACK
350
231
  3
PUCSORGBOTTOM
350
22D
  3
PUCSORGFRONT
350
230
  3
PUCSORGLEFT
350
22E
  3
PUCSORGRIGHT
350
22F
  3
PUCSORGTOP
350
22C
  3
PUCSORTHOREF
350
229
  3
PUCSORTHOVIEW
350
22A
  3
STYLESHEET
350
21F
  3
TSTACKALIGN
350
21C
  3
TSTACKSIZE
350
21D
  3
UCSBASE
350
234
  3
UCSORGBACK
350
23A
  3
UCSORGBOTTOM
350
236
  3
UCSORGFRONT
350
239
  3
UCSORGLEFT
350
237
  3
UCSORGRIGHT
350
238
  3
UCSORGTOP
350
235
  3
UCSORTHOREF
350
232
  3
UCSORTHOVIEW
350
233
  3
VERSIONGUID
350
227
  0
XRECORD
  5
23E
102
{ACAD_REACTORS
330
23D
102
}
330
23D
100
AcDbXrecord
340
1F
  0
XRECORD
  5
23C
102
{ACAD_REACTORS
330
23B
102
}
330
23B
100
AcDbXrecord
340
1B
  0
MLINESTYLE
  5
18
102
{ACAD_REACTORS
330
17
102
}
330
17
100
AcDbMlineStyle
  2
STANDARD
 70
     0
  3

 62
   256
 51
90.0
 52
90.0
 71
     2
 49
0.5
 62
   256
  6
BYLAYER
 49
-0.5
 62
   256
  6
BYLAYER
  0
ACDBPLACEHOLDER
  5
F
102
{ACAD_REACTORS
330
E
102
}
330
E
100
AcDbPlaceHolder
280
     0
  0
XRECORD
  5
225
102
{ACAD_REACTORS
330
21B
102
}
330
21B
100
AcDbXrecord
 90
        0
  0
XRECORD
  5
226
102
{ACAD_REACTORS
330
21B
102
}
330
21B
100
AcDbXrecord
  1
{DC175E3D-AE85-11D5-9A93-0040C77E826B}
  0
XRECORD
  5
21E
102
{ACAD_REACTORS
330
21B
102
}
330
21B
100
AcDbXrecord
  1

  0
XRECORD
  5
224
102
{ACAD_REACTORS
330
21B
102
}
330
21B
100
AcDbXrecord
 90
        1
  0
XRECORD
  5
220
102
{ACAD_REACTORS
330
21B
102
}
330
21B
100
AcDbXrecord
340
1A
  0
XRECORD
  5
223
102
{ACAD_REACTORS
330
21B
102
}
330
21B
100
AcDbXrecord
 90
    10781
  0
XRECORD
  5
221
102
{ACAD_REACTORS
330
21B
102
}
330
21B
100
AcDbXrecord
340
19
  0
XRECORD
  5
222
102
{ACAD_REACTORS
330
21B
102
}
330
21B
100
AcDbXrecord
340
E
  0
XRECORD
  5
228
102
{ACAD_REACTORS
330
21B
102
}
330
21B
100
AcDbXrecord
 40
0.0
  0
XRECORD
  5
22B
102
{ACAD_REACTORS
330
21B
102
}
330
21B
100
AcDbXrecord
340
0
  0
XRECORD
  5
231
102
{ACAD_REACTORS
330
21B
102
}
330
21B
100
AcDbXrecord
 10
0.0
 20
0.0
 30
0.0
  0
XRECORD
  5
22D
102
{ACAD_REACTORS
330
21B
102
}
330
21B
100
AcDbXrecord
 10
0.0
 20
0.0
 30
0.0
  0
XRECORD
  5
230
102
{ACAD_REACTORS
330
21B
102
}
330
21B
100
AcDbXrecord
 10
0.0
 20
0.0
 30
0.0
  0
XRECORD
  5
22E
102
{ACAD_REACTORS
330
21B
102
}
330
21B
100
AcDbXrecord
 10
0.0
 20
0.0
 30
0.0
  0
XRECORD
  5
22F
102
{ACAD_REACTORS
330
21B
102
}
330
21B
100
AcDbXrecord
 10
0.0
 20
0.0
 30
0.0
  0
XRECORD
  5
22C
102
{ACAD_REACTORS
330
21B
102
}
330
21B
100
AcDbXrecord
 10
0.0
 20
0.0
 30
0.0
  0
XRECORD
  5
229
102
{ACAD_REACTORS
330
21B
102
}
330
21B
100
AcDbXrecord
340
0
  0
XRECORD
  5
22A
102
{ACAD_REACTORS
330
21B
102
}
330
21B
100
AcDbXrecord
 70
     0
  0
XRECORD
  5
21F
102
{ACAD_REACTORS
330
21B
102
}
330
21B
100
AcDbXrecord
  1

  0
XRECORD
  5
21C
102
{ACAD_REACTORS
330
21B
102
}
330
21B
100
AcDbXrecord
 90
        1
  0
XRECORD
  5
21D
102
{ACAD_REACTORS
330
21B
102
}
330
21B
100
AcDbXrecord
 90
       70
  0
XRECORD
  5
234
102
{ACAD_REACTORS
330
21B
102
}
330
21B
100
AcDbXrecord
340
0
  0
XRECORD
  5
23A
102
{ACAD_REACTORS
330
21B
102
}
330
21B
100
AcDbXrecord
 10
0.0
 20
0.0
 30
0.0
  0
XRECORD
  5
236
102
{ACAD_REACTORS
330
21B
102
}
330
21B
100
AcDbXrecord
 10
0.0
 20
0.0
 30
0.0
  0
XRECORD
  5
239
102
{ACAD_REACTORS
330
21B
102
}
330
21B
100
AcDbXrecord
 10
0.0
 20
0.0
 30
0.0
  0
XRECORD
  5
237
102
{ACAD_REACTORS
330
21B
102
}
330
21B
100
AcDbXrecord
 10
0.0
 20
0.0
 30
0.0
  0
XRECORD
  5
238
102
{ACAD_REACTORS
330
21B
102
}
330
21B
100
AcDbXrecord
 10
0.0
 20
0.0
 30
0.0
  0
XRECORD
  5
235
102
{ACAD_REACTORS
330
21B
102
}
330
21B
100
AcDbXrecord
 10
0.0
 20
0.0
 30
0.0
  0
XRECORD
  5
232
102
{ACAD_REACTORS
330
21B
102
}
330
21B
100
AcDbXrecord
340
0
  0
XRECORD
  5
233
102
{ACAD_REACTORS
330
21B
102
}
330
21B
100
AcDbXrecord
 70
     0
  0
XRECORD
  5
227
102
{ACAD_REACTORS
330
21B
102
}
330
21B
100
AcDbXrecord
  1
{A4027D62-2E14-401C-A277-1CD46C45CC55}
  0
ENDSEC
  0
EOF
